Details for this torrent 

Shotgun.Stories.2007
Type:
Video > Movies
Files:
3
Size:
697.07 MiB (730932806 Bytes)
Info:
IMDB
Uploaded:
2008-05-17 12:41:01 GMT
By:
charliesx
Seeders:
2
Leechers:
0
Comments
4  

Info Hash:
A4C271EC8EF90ADD216D1504340516C38A32260E




(Problems with magnets links are fixed by upgrading your torrent client!)
Rating: 6.8/10 (289 votes)  
http://www.imdb.com/title/tt0952682/


Shotgun Stories tracks a feud that erupts between two sets of half brothers following the death of their father. Set against the cotton fields and back roads of Southeast Arkansas, these brothers discover the lengths to which each will go to protect their family
upload by ahashare.com

Comments

Thanks for the movie!
A:9 V:9

Format : AVI
Format/Info : Audio Video Interleave
File size : 697 MiB
Duration : 1h 26mn
Overall bit rate : 1 126 Kbps
Writing application : VirtualDubMod 1.5.10.2 (build 2540/release)
Writing library : VirtualDubMod build 2540/release
Video #0
ID : 0
Format : MPEG-4 Visual
Format profile : [email protected]
Format settings, BVOP : Yes
Format settings, QPel : No
Format settings, GMC : No warppoints
Format settings, Matrix : Default (H.263)
Codec ID : XVID
Codec ID/Hint : XviD
Duration : 1h 26mn
Bit rate : 924 Kbps
Width : 640 pixels
Height : 272 pixels
Display aspect ratio : 2.35:1
Frame rate : 25.000 fps
Resolution : 24 bits
Colorimetry : 4:2:0
Scan type : Progressive
Bits/(Pixel*Frame) : 0.212
Stream size : 572 MiB (82%)
Writing library : XviD 1.1.2 (UTC 2006-11-01)
Audio #1
ID : 1
Format : AC-3
Format/Info : Audio Coding 3
Format profile : Dolby Digital
Codec ID : 2000
Duration : 1h 26mn
Bit rate mode : Constant
Bit rate : 192 Kbps
Channel(s) : 2 channels
Channel positions : L R
Sampling rate : 48.0 KHz
Stream size : 119 MiB (17%)
Alignment : Split accross interleaves
Interleave, duration : 40 ms (1.00 video frame)
Interleave, preload duration : 500 ms
I hope there will be english subs soon.
thanks
good quality for dvdrip this size. Thanks!