Details for this torrent 

The Smashing Pumpkins - Waiting - 2000 promo CD w/ unreleased so
Type:
Audio > Music
Files:
11
Size:
318.89 MiB (334381069 Bytes)
Spoken language(s):
English
Texted language(s):
English
Uploaded:
2007-02-03 07:00:18 GMT
By:
overlydiatonic
Seeders:
0
Leechers:
2
Comments
3  

Info Hash:
03BA2B472FF8C78BC6CD4DFCD86821F9B139A686




(Problems with magnets links are fixed by upgrading your torrent client!)
A 2000 Virgin promo CD by The Smashing Pumpkins, technically untitled, but I like to call it "Waiting", as that is the name of the unreleased song on it. Ripped in cdparanoia with no errors. Encoded in the lossless Flac format -- see http://flac.sourceforge.net/ if you don't know what this means. 600 dpi scans of the booklet and tray card included.

1. The Everlasting Gaze [4:02] (from MACHINA/the machines of God)
2. I Am One [4:07] (from Gish)
3. Disarm [3:18] (from Siamese Dream)
4. Starla [10:59] (from Pisces Iscariot)
5. Bullet with Butterfly Wings [4:19] (from Mellon Collie and the Infinite Sadness)
6. Medellia of the Gray Skies [3:11] (from The Aeroplane Flies High)
7. Waiting [3:51] (previously unreleased, from Adore sessions)

Comments

Ah com on! Cant you put this up in mp3/192??
Flac is just fine thankyouverymuch!
FYI, since ripping this I have found out that my drive has a read offset of +6. So if you want a totally 100% exact copy of this, you can merge it all into one track, delete the first 6 samples (which are silent) from the beginning and paste them onto the end, and split it into tracks again. I doubt anyone really cares though, but thought I'd mention it just in case. (If you don't understand what I just said or why you would care, then don't worry about it... the sound quality is still perfect anyway.)

Also, since I didn't include a cue file in the torrent, here one is:

PERFORMER "The Smashing Pumpkins"
TITLE "Waiting"
FILE "01 - The Everlasting Gaze.wav" WAVE
TRACK 01 AUDIO
TITLE "The Everlasting Gaze"
PERFORMER "The Smashing Pumpkins"
ISRC USVI29900302
INDEX 01 00:00:00
TRACK 02 AUDIO
TITLE "I Am One"
PERFORMER "The Smashing Pumpkins"
ISRC USVI29100017
INDEX 00 04:00:60
FILE "02 - I Am One.wav" WAVE
INDEX 01 00:00:00
TRACK 03 AUDIO
TITLE "Disarm"
PERFORMER "The Smashing Pumpkins"
ISRC USVI29300030
INDEX 00 04:06:50
FILE "03 - Disarm.wav" WAVE
INDEX 01 00:00:00
TRACK 04 AUDIO
TITLE "Starla"
PERFORMER "The Smashing Pumpkins"
ISRC USVI29400023
INDEX 00 03:16:45
FILE "04 - Starla.wav" WAVE
INDEX 01 00:00:00
TRACK 05 AUDIO
TITLE "Bullet with Butterfly Wings"
PERFORMER "The Smashing Pumpkins"
ISRC USVI29500048
INDEX 00 10:58:37
FILE "05 - Bullet with Butterfly Wings.wav" WAVE
INDEX 01 00:00:00
TRACK 06 AUDIO
TITLE "Medellia of the Gray Skies"
PERFORMER "The Smashing Pumpkins"
ISRC USVI29600056
INDEX 00 04:16:65
FILE "06 - Medellia of the Gray Skies.wav" WAVE
INDEX 01 00:00:00
TRACK 07 AUDIO
TITLE "Waiting"
PERFORMER "The Smashing Pumpkins"
ISRC USVI29800585
INDEX 00 03:10:33
FILE "07 - Waiting.wav" WAVE
INDEX 01 00:00:00